#TITLE:Amour;
#SUBTITLE:;
#ARTIST:Luo Bai Ji;
#TITLETRANSLIT:Amour;
#SUBTITLETRANSLIT:;
#ARTISTTRANSLIT:Luo Bai Ji;
#CREDIT:;
#BANNER:Amour-bn.png;
#BACKGROUND:Amour-bg.png;
#LYRICSPATH:;
#CDTITLE:pm4cd.png;
#MUSIC:Amour.mp3;
#OFFSET:0.000;
#SAMPLESTART:69.410;
#SAMPLELENGTH:20.000;
#SELECTABLE:YES;
#BPMS:0.000=148.020;
#STOPS:;
#BGCHANGES:;
// cache tags:
#FIRSTBEAT:1.500;
#LASTBEAT:538.500;
#SONGFILENAME:Songs/Music V.I.P ^_^/Amour/Amour.sm;
#HASMUSIC:1;
#HASBANNER:1;
#MUSICLENGTH:222.275;
// end cache tags

//---------------dance-single - ----------------
#NOTES:
     dance-single:
     :
     Hard:
     11:
     1.000,1.000,1.000,0.058,0.279,1140.000,492.000,13.000,0.000,43.000:
0000
0000
0000
0020
0000
0000
0000
0000
,
0000
0000
0000
0000
0030
0000
1001
0000
0100
0010
0001
0000
0100
0000
0010
0000
,
0001
0000
1010
0000
0100
0000
1001
0000
0010
0100
1000
0000
0001
0000
0010
0000
,
0100
0000
1001
0000
0010
0000
1100
0000
0001
0010
0100
0000
0001
0000
0100
0000
,
0010
0000
1100
0000
0010
0000
0101
0000
1000
0100
0010
0000
0100
0000
0001
0000
,
0010
0000
0100
0000
1000
0000
0101
0000
0010
0100
0001
0000
0010
0000
1000
0000
,
0100
0000
1010
0000
0001
0000
0110
0000
1000
0010
0100
0000
0001
0000
0100
0000
,
0001
0000
1010
0000
0100
0000
1001
0000
0001
0100
0010
0000
1000
0000
0100
0000
,
0010
0000
0101
0000
0010
0000
1100
0000
0001
1000
0010
0000
0001
0000
1100
0000
,
0011
1100
0011
0000
0110
0000
0121
0000
0000
0000
0000
0000
0000
0000
0000
0000
,
1000
0000
0001
0000
0100
0000
1031
0000
1000
0100
0011
0000
1000
0000
0101
0000
,
0010
0000
1100
0000
0010
0000
0101
0000
0001
0010
1100
0000
0010
0000
1001
0000
,
0100
0000
0011
0000
1000
0000
1010
0000
0100
0010
1100
0000
0001
0000
0101
0000
,
0010
0000
1010
0000
0100
0000
0011
0000
0010
0100
0011
0000
0100
0000
1001
0000
,
0001
0000
1011
0000
0110
0000
1101
0000
1000
0100
0011
0000
0001
0000
1010
0000
,
0100
0000
0101
0000
0010
0000
1100
0000
0100
0010
1100
0000
0100
0000
0101
0000
,
0010
0000
1010
0000
0001
0000
0110
0000
0010
0100
0011
0000
0010
0000
1010
0000
,
0100
0000
0101
0000
0001
0000
0011
0000
0001
0010
1100
0000
0100
0000
0101
0000
,
1100
0110
0011
0000
0100
0000
1101
0000
0100
0010
1100
0000
0001
0000
0110
0000
,
1000
0000
0101
0000
0010
0000
1100
0000
1000
0100
0011
0000
0010
0000
1010
0000
,
1000
0000
1100
0000
0100
0000
0101
0000
0001
0010
1100
0000
0100
0000
0101
0000
,
0100
0000
1100
0000
0001
0000
0110
0000
1000
0010
0101
0000
0100
0000
1100
0000
,
0001
0000
0110
0000
0100
0000
1011
0000
0001
0100
1010
0000
0010
0000
0110
0000
,
0100
0000
0101
0000
0010
0000
1100
0000
0010
0001
1100
0000
0100
0000
0101
0000
,
0010
0000
1100
0000
0001
0000
0110
0000
0100
1000
0011
0000
0100
0000
1001
0000
,
1000
0000
1100
0000
0010
0000
0101
0000
0001
0100
0011
0000
0100
0000
1000
0000
,
0100
0001
0010
0000
1001
0000
0110
0000
1000
0000
0010
0000
0100
0000
1001
0000
,
0010
0001
0100
1010
0100
0001
0010
1100
,
0010
1000
0001
0110
1000
0010
0100
1010
,
0001
0100
0010
0101
0000
1100
0000
0110
,
1000
0001
1011
1101
0010
1000
0010
1001
,
0100
0001
0010
1100
0010
1000
0001
0110
,
1000
0100
0010
1001
0010
0100
1000
0101
,
0010
0001
0100
0011
0000
1010
0000
0011
,
1010
0101
1010
0000
0101
0000
0111
0000
1000
0000
0010
0000
0100
0000
0011
0000
,
1000
0001
0010
1100
0010
0001
0010
0101
,
0010
1000
0010
1001
0100
0001
0010
0101
,
1000
0100
1000
0011
0100
1000
0010
0101
,
0010
0000
0100
0000
1000
0100
0011
0000
0100
0000
1000
0000
0010
0000
1001
0000
,
0010
1000
0100
1010
0001
1000
0100
0011
,
1000
0001
0100
1010
1010
1010
1001
1001
,
1001
0000
0011
0000
0011
0000
1100
0010
0100
0010
0100
0010
0100
0010
0100
0010
,
0100
0010
0100
0010
0100
0010
1001
0000
0000
0000
0000
0020
0000
0000
0000
0000
,
0000
0000
0000
0000
0030
0000
1001
0000
1000
0010
1100
0000
0001
0000
0101
0000
,
0010
0001
1100
0000
0100
0000
0101
0000
0001
0010
1100
0000
0100
0000
0011
0000
,
0001
0000
1010
0000
0100
0000
0011
0000
0100
0010
1100
0000
0001
0000
0110
0000
,
0100
0000
1100
0000
1000
0000
0101
0000
0100
1000
0011
0000
0001
0000
1100
0000
,
1000
0100
1010
0000
0011
1100
0011
0000
0001
0010
0101
0000
0100
0000
0011
0000
,
0001
0010
1100
0000
1000
0000
0110
0000
0001
0100
1010
0000
0010
0000
0011
0000
,
1000
0000
0101
0000
0010
0000
1100
0000
0010
0100
0011
0000
1000
0000
0101
0000
,
0001
0000
0110
0000
1000
0000
1100
0000
0011
0110
1100
0000
0110
0000
1100
0110
,
0011
0110
1001
0000
0100
0000
0111
0000
1000
0000
0110
0000
0001
0000
1010
0000
,
0100
0011
0010
0110
0100
1100
0100
0110
,
0010
0011
0010
1011
0100
0101
0100
0011
,
0100
1010
0100
1001
0010
1100
0010
0101
,
0100
0000
1100
0000
1000
0010
0101
0000
0010
0000
1001
0000
0001
0000
0110
0000
,
0100
0011
0100
1010
0100
0011
1000
0101
,
0010
1001
0100
1110
0001
0110
0100
1101
,
0010
1100
0001
1022
0000
0000
0000
0000
,
0100
0000
1000
0000
0100
0033
1001
0000
0001
0010
1100
0000
0010
0000
0101
0000
,
1000
0000
0110
0000
0001
0000
0011
0000
0010
0100
0011
0000
1000
0000
0011
0000
,
0100
0000
1001
0000
1000
0000
0101
0000
0100
0010
1100
0000
0100
0000
0011
0000
,
1000
0000
0101
0000
0010
0000
0110
0000
0100
0010
0101
0000
0010
0000
1001
0000
,
0010
0000
0111
0000
1110
0000
1101
0000
0010
0100
1010
0000
0001
0000
0011
0000
,
0100
0000
1010
0000
0010
0000
0110
0000
0100
0010
1100
0000
0010
0000
0101
0000
,
0001
0000
0011
0000
1000
0000
0101
0000
0001
0010
1100
0000
1000
0000
0101
0000
,
0010
0000
1100
0000
0001
0000
1010
0000
1000
0100
0011
0000
0010
0000
0101
0000
,
1001
0110
1001
0000
0010
0000
1101
0000
0100
0000
0101
0000
0010
0000
1100
0000
,
0001
0000
0110
0000
1000
0000
0101
0000
0001
0100
1010
0000
1000
0000
0101
0000
,
0010
0000
1100
0000
0100
0000
0011
0000
0100
0001
1100
0000
0010
0000
0101
0000
,
0010
0000
1100
0000
0100
0000
1001
0000
0010
1000
0011
0000
0001
0000
1010
0000
,
1000
0000
1011
0000
1101
0000
0111
0000
1000
0010
0101
0000
0100
0000
0011
0000
,
0100
0000
1010
0000
0010
0000
0110
0000
0001
0010
0101
0000
0100
0000
0011
0000
,
1000
0000
1010
0000
0100
0000
0011
0000
0010
0100
1010
0000
1000
0000
0011
0000
,
0100
0000
0101
0000
1000
0000
1100
0000
0100
1000
0011
0000
0010
0000
0001
0000
,
0001
0010
1100
0000
0110
0000
1011
0000
0100
0000
0001
0000
0010
0000
1100
0000
,
0010
1000
0001
0110
1000
0100
0010
1001
,
0010
0001
0010
1100
0010
1000
0100
1010
,
0001
0100
0010
0101
0000
1001
0000
1100
,
0010
1000
0110
1001
0010
0001
0100
1010
,
0100
1000
0010
0101
0010
0001
0100
0011
,
0100
1000
0001
1100
0010
0001
1000
0101
,
0010
1000
0001
0110
0000
1001
0000
0101
,
1010
0110
0101
0000
1001
0000
0111
0000
0001
0000
1000
0000
0010
0000
0101
0000
,
0010
1000
0100
1001
0010
1000
0100
1010
,
0100
0010
0100
0011
0100
0010
1000
0101
,
0010
0100
1000
0011
0100
0010
1000
0101
,
0010
0000
0100
0000
0001
0010
1100
0000
0010
0000
0001
0000
0100
0000
1010
0000
,
0100
0001
0010
0101
1000
0010
0100
1010
,
0100
0010
0001
0101
0101
0101
1001
1001
,
1001
0000
1100
0000
1100
0000
0110
0001
0100
0001
0100
0001
0100
0001
0100
0001
,
0100
0001
0100
0001
0100
0001
1010
0000
0000
0000
0000
0200
0000
0000
0000
0000
,
0000
0000
0000
0000
0300
0000
0101
0000
0010
1000
0011
0000
0100
0000
0101
0000
,
0001
0010
1100
0000
0100
0000
1001
0000
1000
0100
0011
0000
0010
0000
1010
0000
,
1000
0000
1100
0000
0001
0000
0101
0000
0010
0100
0011
0000
1000
0000
1010
0000
,
0100
0000
0011
0000
1000
0000
0110
0000
0100
0010
1100
0000
0001
0000
0101
0000
,
0001
0010
1100
0000
0101
1010
0101
0000
0010
0000
1100
0000
0001
0000
0101
0000
,
0001
0100
1010
0000
1000
0000
0110
0000
0100
0001
1100
0000
0100
0000
0101
0000
,
0010
0000
0110
0000
0001
0000
1100
0000
1000
0100
0011
0000
0100
0000
1010
0000
,
0010
0000
1100
0000
0001
0000
1010
0000
1100
0110
1001
0000
0010
0000
1100
0110
,
0011
1100
1010
0000
0001
0000
1110
0000
1000
0100
0011
0000
0001
0000
1010
0000
,
0001
0100
0011
0000
1000
0000
0101
0000
0100
0010
1100
0000
0100
0000
0011
0000
,
0010
0000
1010
0000
0100
0000
0011
0000
0100
0010
1100
0000
0001
0000
0110
0000
,
0100
0000
0101
0000
0001
0000
1100
0000
1000
0010
0101
0000
0001
0000
0011
0000
,
0001
0100
1010
0000
1100
1001
0011
0000
1000
0000
0101
0000
0100
0000
1001
0000
,
0001
0010
1100
0000
0100
0000
0101
0000
0010
0000
1100
0000
0001
0000
0101
0000
,
0010
0000
1100
0000
0001
0000
0101
0000
1000
0010
1100
0000
0001
0000
0110
0000
,
0100
0000
1100
0000
0001
0000
0101
0000
0011
1001
1100
0000
0110
0000
1100
0011
,
1001
0110
1001
0000
0010
0000
0101
0000
0000
0000
0220
0000
0000
0000
0000
0000
,
0000
0000
0000
1331
1000
1010
0010
1100
,
0001
1010
0100
0011
1000
0101
0010
1100
,
0001
0101
0010
1110
0100
0101
0010
0011
,
0010
1100
0010
0101
0001
1100
0100
0011
,
1000
0000
0101
0000
0100
0010
1100
0000
0001
0000
0101
0000
0100
0000
0011
0000
,
0100
1010
0001
0011
0010
1010
1000
1100
,
0001
0101
0010
1000
0000
0100
0000
0010
,
0100
1000
0010
2102
0000
0000
0000
0000
,
0100
0000
0010
0000
0100
3003
0111
0000
1000
0010
1100
0000
0100
0000
0011
0000
,
0010
0000
1010
0000
0001
0000
0110
0000
0100
0010
1100
0000
0001
0000
0101
0000
,
0010
0000
1010
0000
1000
0000
1100
0000
1000
0100
0011
0000
0010
0000
0101
0000
,
0010
0000
1001
0000
0100
0000
0011
0000
0001
0010
1100
0000
0010
0000
0101
0000
,
0010
0000
1011
0000
1101
0000
0111
0000
0001
0010
1100
0000
0100
0000
0101
0000
,
0010
0000
0110
0000
0100
0000
0011
0000
1000
0010
0101
0000
0010
0000
1100
0000
,
0100
0000
1001
0000
0010
0000
1100
0000
0001
0100
1010
0000
1000
0000
0011
0000
,
0100
0000
0101
0000
0010
0000
1100
0000
0001
0100
0011
0000
0010
0000
1010
0000
,
0101
1010
0011
0000
1110
0000
1011
0000
0010
0000
1100
0000
0001
0000
0110
0000
,
1000
0000
0101
0000
0010
0000
1001
0000
0010
0100
0011
0000
0100
0000
1010
0000
,
0100
0000
1001
0000
0010
0000
1100
0000
0100
0010
0101
0000
0001
0000
1010
0000
,
0100
0000
0011
0000
0100
0000
1001
0000
0001
0010
0101
0000
0100
0000
1100
0000
,
0010
0000
1101
0000
1011
0000
1110
0000
0001
0010
1100
0000
0100
0000
0011
0000
,
0001
0000
0110
0000
1000
0000
0101
0000
0100
1000
0011
0000
0010
0000
1010
0000
,
0100
0000
1001
0000
0001
0000
0110
0000
1000
0010
1100
0000
0100
0000
0011
0000
,
0100
0000
1010
0000
0001
0000
0110
0000
0100
0010
1100
0000
0100
0000
0101
0000
,
0011
0110
1100
0000
0101
0000
2022
0000
0000
0000
0000
0000
0000
0000
0000
0000
,
0000
0000
0000
0000
0000
3033
0000
0000
;

//---------------dance-single - ----------------
#NOTES:
     dance-single:
     :
     Medium:
     1:
     0.000,0.000,0.000,0.000,0.000,0.000,0.000,0.000,0.000,0.000:
0000
0000
0000
0000
;

//---------------dance-single - ----------------
#NOTES:
     dance-single:
     :
     Easy:
     1:
     0.000,0.000,0.000,0.000,0.000,0.000,0.000,0.000,0.000,0.000:
0000
0000
0000
0000
;
